<?xml version="1.0" standalone="no"?>
<!DOCTYPE svg PUBLIC "-//W3C//DTD SVG 1.1//EN" "http://www.w3.org/Graphics/SVG/1.1/DTD/svg11.dtd" >
<svg xmlns="http://www.w3.org/2000/svg">
<metadata></metadata>
<defs>
<font id="chunkfiveregular" horiz-adv-x="790" >
<font-face units-per-em="2048" ascent="1536" descent="-512" />
<missing-glyph horiz-adv-x="512" />
<glyph horiz-adv-x="0" />
<glyph unicode="&#xd;" horiz-adv-x="573" />
<glyph unicode=" "  horiz-adv-x="512" />
<glyph unicode="&#x09;" horiz-adv-x="512" />
<glyph unicode="&#xa0;" horiz-adv-x="512" />
<glyph unicode="!" horiz-adv-x="630" d="M57 209q0 39 15.5 78t46.5 69.5t74 50t98 19.5t99 -17.5t77 -47t50.5 -69.5t17.5 -83q0 -86 -66 -148.5t-178 -62.5q-49 0 -92 18.5t-75 47t-49.5 66.5t-17.5 79zM66 1042v390h489v-390l-109 -516h-270z" />
<glyph unicode="'" horiz-adv-x="559" d="M74 1436h405l-73 -613h-256z" />
<glyph unicode="(" horiz-adv-x="794" d="M51 639q0 180 51.5 344t126 297t157.5 233.5t146 155.5l211 -217q-37 -45 -91 -115.5t-103 -170t-85 -230.5t-36 -297q0 -172 33 -305t80 -236.5t102 -178.5t100 -128l-211 -219q-84 76 -168.5 186.5t-154.5 247.5t-114 297t-44 336z" />
<glyph unicode=")" horiz-adv-x="794" d="M51 -211q45 53 100.5 128t102.5 178.5t80 236.5t33 305q0 166 -36 297t-85 230.5t-103.5 170t-91.5 115.5l211 217q63 -55 146.5 -155.5t158 -233.5t125.5 -297t51 -344q0 -176 -44 -336t-113.5 -297t-155.5 -247.5t-168 -186.5z" />
<glyph unicode="," horiz-adv-x="557" d="M-12 -264q55 68 95 137.5t64.5 148t33.5 171t1 208.5l373 -98q6 -199 -84 -379t-248 -321z" />
<glyph unicode="-" d="M96 352v273h594v-273h-594z" />
<glyph unicode="." horiz-adv-x="528" d="M31 213q0 39 15 81t44 75.5t73 55t99 21.5t99.5 -21.5t75 -55t46 -75.5t15.5 -81q0 -92 -59.5 -156.5t-176.5 -64.5q-51 0 -93 19.5t-72.5 50t-48 70.5t-17.5 81z" />
<glyph unicode="0" horiz-adv-x="1226" d="M31 723q0 162 42 298t118.5 232.5t183 150.5t233.5 54q150 0 261.5 -53t183 -151.5t107.5 -236.5t36 -308t-38 -306.5t-111.5 -231.5t-181.5 -145.5t-247 -50.5q-129 0 -236.5 46.5t-185 139.5t-121.5 233.5t-44 328.5zM436 723q0 -98 17.5 -178t43 -136.5t58 -86 t63.5 -29.5q35 0 66 29.5t53.5 84t34.5 131t12 171.5q0 92 -13 168.5t-37.5 132t-57.5 87t-70 31.5q-29 0 -58.5 -27.5t-54 -80.5t-41 -128t-16.5 -169z" />
<glyph unicode="1" horiz-adv-x="1015" d="M51 1163q43 20 84 41t83 48.5t89 69.5t103 110h364v-1160h191v-272h-820v272h205v760l-205 -96z" />
<glyph unicode="2" horiz-adv-x="1208" d="M51 0v297q43 70 76 118t66.5 86t70.5 71.5t86 72.5q55 49 118.5 90t118 81t90.5 82t36 89q0 78 -50.5 106.5t-121.5 28.5q-41 0 -77 -15t-67.5 -37.5t-58.5 -50.5t-49 -52l-221 233q109 125 243.5 189.5t288.5 64.5q102 0 191.5 -30.5t155 -89t103 -141.5t37.5 -187 q0 -88 -20 -151.5t-61 -114t-102.5 -95.5t-143.5 -98q-37 -25 -83 -58.5t-90 -71.5t-80 -76t-54 -69h360v164h344v-436h-1106z" />
<glyph unicode="3" horiz-adv-x="1105" d="M31 205l209 217q57 -57 119.5 -95t150.5 -38q86 0 135 40t49 117q0 84 -46 117t-124 33h-153v244h149q74 0 124 35.5t50 105.5q0 41 -16 71.5t-42 50t-57.5 30t-64.5 10.5q-59 0 -122.5 -33t-117.5 -90l-198 240q27 31 73 64.5t104 62t124.5 48t136.5 19.5 q125 0 222.5 -30.5t164 -88t101 -137.5t34.5 -178q0 -53 -16 -94t-40 -73t-49.5 -55.5t-45.5 -37.5q25 -18 57.5 -47t62 -70t50 -95t20.5 -124q0 -115 -50 -199t-130 -140t-181.5 -84t-205.5 -28q-74 0 -145.5 19.5t-136 51.5t-115 74t-80.5 87z" />
<glyph unicode="4" horiz-adv-x="1196" d="M20 403v293l590 736h424v-807h109v-222h-109v-133h111v-270h-664v270h129v133h-590zM307 625h303v379z" />
<glyph unicode="5" horiz-adv-x="1181" d="M31 221l223 232q59 -61 128 -106.5t159 -45.5q104 0 164.5 57.5t60.5 147.5q0 41 -16.5 76.5t-44 63.5t-66.5 43.5t-82 15.5q-72 0 -116 -30t-76 -65l-263 117l125 705h811v-306h-551l-34 -198q31 20 88 34.5t133 14.5q90 0 176 -31t152.5 -92t107.5 -152.5t41 -209.5 q0 -129 -54.5 -226.5t-141.5 -162t-196 -97.5t-220 -33q-78 0 -155 20.5t-145.5 55.5t-123 80t-84.5 92z" />
<glyph unicode="6" horiz-adv-x="1189" d="M33 623q-2 68 5 154.5t28.5 178t62.5 179.5t108.5 157.5t165 113.5t232.5 48q51 2 116.5 -9t131 -31.5t128 -51.5t107.5 -70l-139 -266q-53 31 -129 67.5t-170 36.5q-115 -4 -183.5 -83.5t-84.5 -194.5q41 41 113.5 70.5t154.5 33.5q98 4 185 -27.5t152.5 -92 t103.5 -146.5t38 -190q0 -102 -36 -194.5t-104.5 -163t-166.5 -113.5t-223 -47q-127 -4 -233.5 37.5t-185.5 124.5t-126 204t-51 275zM416 545q0 -39 11 -81t34.5 -78t59.5 -59.5t85 -23.5q39 0 74 13.5t59.5 38t39 56t14.5 68.5q0 31 -9.5 62.5t-29 59.5t-51 44.5 t-76.5 16.5q-37 -2 -70 -14.5t-60.5 -30t-48 -38t-32.5 -34.5z" />
<glyph unicode="7" horiz-adv-x="1159" d="M31 1026v406h1108v-273l-551 -1159h-443l549 1159h-336v-133h-327z" />
<glyph unicode="8" horiz-adv-x="1144" d="M31 420q0 49 15 102t44 102.5t70 90.5t92 65q-78 47 -116 123t-38 150q0 86 33 159.5t95.5 128t153.5 85t206 30.5q119 0 210 -30.5t153.5 -85t94 -128t31.5 -159.5q0 -102 -52 -174t-120 -105q104 -51 157.5 -150.5t53.5 -203.5q0 -94 -38 -176t-108.5 -141.5 t-171 -94.5t-223.5 -35q-127 0 -228 35t-171 94.5t-106.5 141.5t-36.5 176zM385 432q0 -37 15.5 -67.5t41 -53t60.5 -35t73 -12.5q76 0 131.5 41t57.5 127q0 53 -27.5 88t-67.5 55.5t-85 28.5t-80 10q-47 -27 -83 -76t-36 -106zM434 1069q0 -43 22.5 -68.5t54.5 -40 t66.5 -20.5t59.5 -6q39 18 68.5 53t29.5 82q0 55 -46 92t-107 37q-59 0 -103.5 -39t-44.5 -90z" />
<glyph unicode="9" horiz-adv-x="1202" d="M31 936q0 102 35.5 194.5t104.5 163t167 113.5t223 47t234.5 -38t190.5 -125t130 -203.5t53 -274.5q2 -78 -5 -169t-30.5 -181t-66.5 -176t-111.5 -151.5t-167 -107.5t-233.5 -46q-51 -2 -116.5 9t-131 31.5t-128 51t-107.5 69.5l139 267q53 -31 129 -68t170 -37 q115 4 183.5 74t66.5 205q-41 -41 -104.5 -71t-145.5 -34q-98 -4 -185 28t-153 92t-103.5 146t-37.5 191zM397 956q0 -31 9.5 -62.5t29 -59t50 -44t77.5 -16.5q37 2 66.5 14.5t53.5 30t42 36.5t31 36q0 39 -8.5 81t-29 77.5t-53 59.5t-81.5 24q-39 0 -74 -13.5t-59.5 -38 t-39 -56.5t-14.5 -69z" />
<glyph unicode=":" horiz-adv-x="520" d="M31 201q0 39 14 78.5t44 73.5t72 55.5t97 21.5t98 -21.5t73 -55.5t45 -73.5t15 -78.5q0 -45 -16 -85t-47 -69t-74 -46t-94 -17q-49 0 -91 18t-73 49t-47 70t-16 80zM31 823q0 39 14 79t44 74t72 55.5t97 21.5t98 -21.5t73 -55.5t45 -74t15 -79q0 -92 -60 -154.5 t-171 -62.5q-47 0 -89 18.5t-72.5 49.5t-48 69.5t-17.5 79.5z" />
<glyph unicode=";" horiz-adv-x="618" d="M10 -264q55 68 95 137.5t65 148t34 171t1 208.5l373 -98q6 -199 -84.5 -379t-247.5 -321zM121 788q0 39 15.5 81t44 76t72.5 55.5t99 21.5t99.5 -21.5t75 -55.5t46 -76t15.5 -81q0 -92 -62.5 -156.5t-173.5 -64.5q-49 0 -91 19.5t-72.5 50.5t-49 70.5t-18.5 80.5z" />
<glyph unicode="=" horiz-adv-x="1028" d="M90 352v273h844v-273h-844zM90 805v272h844v-272h-844z" />
<glyph unicode="?" horiz-adv-x="1064" d="M4 1200q109 125 244 194.5t289 69.5q102 0 191 -26.5t154.5 -79.5t103.5 -131t38 -183q0 -68 -24.5 -117.5t-60.5 -90.5t-78 -73t-77.5 -59.5t-60.5 -55t-25 -58.5v-113h-379l-2 164q0 47 25 88t60.5 77t77.5 67.5t78 61.5t60.5 57.5t24.5 56.5t-13.5 47t-35 29.5 t-49 15.5t-53.5 4q-33 0 -69 -14.5t-72 -39t-67.5 -54t-58.5 -60.5zM264 209q0 -41 17.5 -79t49 -66.5t75 -47t92.5 -18.5q113 0 178 62.5t65 148.5q0 43 -17 83t-50 69.5t-77 47t-99 17.5t-98.5 -19.5t-74 -50t-46 -69.5t-15.5 -78z" />
<glyph unicode="@" horiz-adv-x="1705" />
<glyph unicode="A" horiz-adv-x="1685" d="M31 0v268h139l276 899h-84v265h787l362 -1164h144v-268h-821v268h194l-43 140h-420l-43 -140h160v-268h-651zM641 653h268l-135 443z" />
<glyph unicode="B" horiz-adv-x="1406" d="M51 0v266h119v901h-119v265h764q256 0 379 -91.5t123 -259.5q0 -66 -10.5 -113.5t-33 -85.5t-61 -67t-96.5 -51q55 -16 104.5 -44t86 -71t58 -101.5t21.5 -131.5q0 -217 -130 -316.5t-427 -99.5h-778zM594 266h164q66 0 116 46t50 130q0 78 -43 129.5t-129 51.5h-158 v-357zM594 854h125q82 0 110.5 42t28.5 116q0 72 -38 110.5t-97 38.5h-129v-307z" />
<glyph unicode="C" horiz-adv-x="1404" d="M31 702q0 176 59.5 316.5t151.5 238t201.5 148.5t209.5 51q76 0 132.5 -18.5t95.5 -42t60.5 -47t27.5 -31.5l47 115h321v-582h-366q-2 49 -16.5 96t-40 83t-65.5 57.5t-95 21.5t-100.5 -32t-77 -87t-49 -129t-17.5 -158q0 -76 19.5 -145.5t57.5 -122.5t93 -85t129 -32 q63 0 120.5 29t100.5 64.5t70.5 67.5t34.5 40l239 -262q-53 -57 -118.5 -109.5t-143.5 -92.5t-168 -63.5t-190 -23.5q-164 0 -297 50.5t-227.5 145.5t-146.5 231t-52 308z" />
<glyph unicode="D" horiz-adv-x="1474" d="M51 0v272h127v889h-127v271h625q186 0 330.5 -54.5t244 -147.5t151.5 -220t52 -275q0 -352 -202.5 -543.5t-583.5 -191.5h-617zM598 272h78q82 2 140 38t95 98.5t54.5 146.5t17.5 180q0 82 -17.5 159t-54.5 136.5t-95 95t-140 35.5h-78v-889z" />
<glyph unicode="E" horiz-adv-x="1337" d="M51 0v272h129v889h-129v271h1235v-453h-354v182h-328v-282h389v-273h-389v-334h328v191h354v-463h-1235z" />
<glyph unicode="F" horiz-adv-x="1306" d="M51 0v272h127v889h-127v271h1225v-453h-363v182h-309v-356h389v-273h-389v-260h209v-272h-762z" />
<glyph unicode="G" horiz-adv-x="1589" d="M31 702q0 168 53 306.5t141 238t201 154.5t233 55q111 0 182.5 -22.5t115.5 -51t67 -57.5t35 -41l43 148h305v-605h-367q-2 61 -21.5 110.5t-52 82.5t-73.5 50t-86 17q-61 0 -113.5 -31.5t-89.5 -83.5t-57.5 -123t-20.5 -147q0 -78 18.5 -146.5t54.5 -119.5t88 -80.5 t120 -29.5q88 0 131 29.5t66 70.5v86h-125v219h680v-219h-82v-512h-410l-63 129q-35 -57 -123 -102t-207 -45q-135 0 -252 50t-204 144t-137 227.5t-50 298.5z" />
<glyph unicode="H" horiz-adv-x="1572" d="M51 0v270h113v891h-113v271h664v-271h-127v-309h389v309h-121v271h666v-271h-119v-891h119v-270h-666v270h121v310h-389v-310h127v-270h-664z" />
<glyph unicode="I" horiz-adv-x="782" d="M51 0v272h129v889h-129v271h680v-271h-127v-889h127v-272h-680z" />
<glyph unicode="J" horiz-adv-x="948" d="M41 -125q39 -18 92 -18q76 0 123 65.5t47 229.5v1011h-176v269h770v-269h-170v-1011q0 -135 -30.5 -242t-99.5 -179.5t-179.5 -110.5t-267.5 -38q-29 0 -56.5 6t-50.5 17z" />
<glyph unicode="K" horiz-adv-x="1669" d="M51 0v266h111v901h-111v265h645v-265h-110v-333l381 333h-148v265h682v-265h-119l-297 -256l414 -645h119v-266h-799v266h139l-221 348l-151 -129v-219h110v-266h-645z" />
<glyph unicode="L" horiz-adv-x="1249" d="M51 0v272h113v889h-113v271h647v-271h-108v-889h264v260h344v-532h-1147z" />
<glyph unicode="M" horiz-adv-x="2064" d="M51 0v264h111v903h-109v265h776l207 -766l197 766h780v-265h-112v-901h112v-266h-647v266h117l-2 684v121h-8q-6 -35 -14.5 -76t-16.5 -78.5t-15.5 -69.5t-13.5 -50l-215 -797h-428q-57 205 -114.5 408.5t-114.5 408.5q-4 12 -10.5 40t-12.5 62.5t-12 73.5t-8 78h-9v-807 h117v-264h-555z" />
<glyph unicode="N" horiz-adv-x="1671" d="M51 0v264h121v903h-119v265h588l504 -752l-2 487h-139v265h616v-265h-135v-1167h-441l-522 780v-516h158v-264h-629z" />
<glyph unicode="O" horiz-adv-x="1515" d="M31 723q0 166 52 303t147.5 236.5t227.5 153.5t292 54q188 0 326 -54t229.5 -153.5t135.5 -240.5t44 -313q0 -174 -47 -312.5t-139.5 -234.5t-226.5 -147.5t-308 -51.5q-160 0 -295 47t-232.5 141.5t-151.5 236.5t-54 335zM537 723q0 -100 17 -181t47 -138.5t72 -88 t91 -30.5t87 30.5t65.5 86t42 133t14.5 174.5q0 92 -13.5 174t-41 142t-69.5 95t-101 35q-47 0 -86 -31.5t-67 -89t-43 -137.5t-15 -174z" />
<glyph unicode="P" horiz-adv-x="1310" d="M51 0v270h115v893h-115v269h664q178 0 288.5 -36t172 -96.5t83 -139.5t21.5 -167q0 -102 -43 -178t-116.5 -126t-171 -75.5t-208.5 -25.5h-155v-318h125v-270h-660zM586 809h92q90 0 145.5 44t55.5 126q0 92 -50.5 139t-140.5 47h-102v-356z" />
<glyph unicode="Q" horiz-adv-x="1546" d="M31 725q0 156 49 287t140 226t218 147.5t281 52.5q180 0 312 -52.5t218 -147.5t128 -229.5t42 -297.5q0 -326 -170 -512q12 -47 31.5 -90t58.5 -43q27 0 34 32.5t7 59.5v59h136v-104q0 -68 -19.5 -128.5t-57.5 -104.5t-96.5 -69.5t-134.5 -25.5q-63 0 -114.5 18.5t-90 50 t-67.5 72.5t-45 86q-74 -12 -160 -12q-156 0 -285 45t-221 136t-143 226.5t-51 317.5zM481 725q0 -66 8 -113q35 37 92.5 68t149.5 31q66 0 123 -22.5t107 -57.5q2 18 3 37.5t1 42.5q0 88 -17.5 165.5t-50.5 136t-78 92.5t-102 34q-47 0 -89 -31t-75 -86t-52.5 -131 t-19.5 -166zM594 375q61 -68 137 -68q57 0 109 45q-10 78 -33 125t-76 47q-51 0 -83 -44t-54 -105z" />
<glyph unicode="R" horiz-adv-x="1509" d="M51 0v270h115v893h-115v269h666q178 0 288.5 -33t173 -90.5t84 -134t21.5 -164.5q0 -59 -22.5 -110.5t-62.5 -89.5t-94 -63.5t-118 -33.5q53 -8 101.5 -34t85 -65t59 -88t22.5 -104q0 -66 10.5 -102.5t39.5 -36.5q47 0 47 65v68h137v-113q0 -63 -14.5 -122.5t-49 -104.5 t-92 -73t-143.5 -28q-203 0 -300 100.5t-97 280.5q0 70 -6.5 115t-28 70.5t-62.5 36t-108 10.5v-318h125v-270h-662zM588 817h92q90 0 143.5 42t53.5 124q0 92 -48.5 137t-138.5 45h-102v-348z" />
<glyph unicode="S" horiz-adv-x="1454" d="M51 0v516h381q0 -66 28.5 -104.5t68.5 -60t84 -30t77 -10.5q27 0 57.5 4t56 15.5t43 31t17.5 52.5q0 39 -58 64.5t-145.5 50t-189.5 56t-189 87t-145.5 140.5t-58.5 216q0 113 48 197t120.5 137t157.5 79.5t161 26.5q63 0 127 -11t121 -35.5t103.5 -64.5t76.5 -97l21 172 h352v-514h-371q0 57 -20.5 101t-56 74.5t-84 46t-101.5 15.5q-23 0 -47 -7t-46 -20.5t-35 -34t-13 -46.5q0 -53 60.5 -88t150.5 -66t194.5 -66.5t194.5 -89t150.5 -133.5t60.5 -201t-50 -202.5t-129 -134t-175.5 -75t-188.5 -22.5q-78 0 -143.5 16.5t-118.5 43t-95 60.5 t-71 69l-22 -158h-359z" />
<glyph unicode="T" horiz-adv-x="1435" d="M31 899v533h1374v-533h-301v262h-172v-889h170v-272h-762v272h168v889h-176v-262h-301z" />
<glyph unicode="U" horiz-adv-x="1509" d="M31 1165v267h651v-265h-111v-442q0 -123 13.5 -201t40 -122t64.5 -60t87 -16q47 0 85 13t65.5 55t42 121t14.5 212v434h-111v271h607v-265h-111v-497q0 -365 -149.5 -535t-438.5 -170q-311 10 -473 177t-162 517v506h-114z" />
<glyph unicode="V" horiz-adv-x="1583" d="M-20 1165v267h755l-2 -267h-110l174 -458q25 -76 42 -140.5t21 -107.5h10q4 43 23.5 112.5t50.5 147.5l186 446h-106l-2 267h582v-267h-101l-491 -1165h-377l-543 1165h-112z" />
<glyph unicode="W" horiz-adv-x="2078" d="M-20 1165v267h675v-267h-118l53 -299q8 -37 18 -96t19.5 -119.5t16.5 -113t11 -74.5h11q2 20 12 75.5t24.5 127t31 151.5t32.5 154l102 461h426l129 -566q10 -49 20.5 -104t17.5 -108.5t13.5 -102.5t10.5 -88h10q2 35 10 88t17.5 109.5t18.5 108.5t15 85l70 311h-113v267 h586v-267h-112l-306 -1165h-485l-123 487q-6 27 -14 61t-14.5 68.5t-12.5 67.5t-10 57h-8q-4 -23 -9.5 -56.5t-12.5 -69t-14 -68.5t-13 -55l-125 -492h-475l-271 1165h-114z" />
<glyph unicode="X" horiz-adv-x="1710" d="M51 0v264h178l301 391l-370 510h-107v267h811v-267h-119l201 -272l209 272h-180v267h680v-267h-174l-310 -395l369 -504h119v-266h-817v266h116l-155 209l-43 57l-211 -268h182v-264h-680z" />
<glyph unicode="Y" horiz-adv-x="1370" d="M-20 1169v263h700v-263h-107l119 -217q4 -14 13.5 -36.5t19.5 -47t18.5 -47t12.5 -35.5h8q2 14 11 37t20.5 47.5t23.5 49t21 43.5l112 206h-112v263h551v-263h-111l-379 -665v-238h115v-266h-656v266h117v242l-397 661h-100z" />
<glyph unicode="Z" horiz-adv-x="1462" d="M51 0v266l746 895l-387 -2l2 -266h-349v539h1344l4 -273l-749 -889h378l2 262h363v-532h-1354z" />
<glyph unicode="[" horiz-adv-x="1474" d="M59 0v270h115v893h-115v271h664q178 0 288.5 -40t172 -105.5t83 -149.5t21.5 -172q0 -115 -61.5 -200t-159.5 -138l229 -363h119v-266h-393l-340 549h-88v-279h125v-270h-660zM594 809h92q90 0 145.5 44t55.5 126q0 92 -50.5 139t-140.5 47h-102v-356z" />
<glyph unicode="\" horiz-adv-x="1337" />
<glyph unicode="]" horiz-adv-x="1325" d="M61 0v266h84v1002h-84v268h474v-926l237 142h-147v272h573v-272h-158l-129 -76l285 -408h84v-268h-332l-344 489l-72 -49v-172h146v-268h-617z" />
<glyph unicode="a" horiz-adv-x="1228" d="M31 303q0 86 33.5 155.5t92 119t136.5 76t164 26.5q45 0 80.5 -9t61.5 -21.5t41 -25t19 -16.5v72q0 70 -55 92.5t-139 22.5q-92 0 -169 -31t-136 -64l-86 238q31 18 78 43t105 48.5t125 38.5t138 15q92 0 190.5 -19.5t179.5 -67.5t133 -130t52 -204v-400h123v-262h-438 l-49 92q-29 -39 -65 -64.5t-73.5 -40t-74.5 -20.5t-64 -6q-74 0 -145.5 20.5t-129 61.5t-93 105.5t-35.5 154.5zM420 324q0 -43 30.5 -70t77.5 -27t82 22.5t49 45.5v78q-2 4 -9 13t-21.5 19.5t-36 18.5t-53.5 8q-61 0 -90 -30.5t-29 -77.5z" />
<glyph unicode="b" horiz-adv-x="1343" d="M63 0v266h87v1002h-87v268h496v-592q16 20 46 37.5t67 31t78 20.5t77 7q117 0 206 -45t149 -119q58 -74 88 -172q28 -91 28 -187v-13q-2 -119 -35.5 -216.5t-95 -166t-147.5 -106.5t-195 -38q-59 0 -100 7.5t-71.5 20.5t-54.5 29.5t-44 35.5l-31 -70h-461zM555 489 q0 -53 12.5 -97t33 -77.5t47 -52t54.5 -18.5q66 0 106 69.5t40 186.5q0 45 -10.5 91t-30 81t-47 57.5t-60.5 22.5q-31 0 -58.5 -18.5t-48 -52.5t-31.5 -82q-8 -35 -8 -78q0 -15 1 -32z" />
<glyph unicode="c" horiz-adv-x="1087" d="M2 518q0 135 42 234.5t111.5 164t161 95t189.5 30.5q51 0 93 -12t74 -30.5t54.5 -39t34.5 -34.5l35 98h241v-463h-301q-2 37 -9 75t-21.5 69.5t-39 51t-59.5 19.5q-45 0 -78.5 -22.5t-56 -59.5t-34 -84t-11.5 -96q0 -100 56.5 -170t154.5 -72h10q75 0 129 30 q58 32 109 87l180 -209q-37 -39 -88 -76.5t-115.5 -66.5t-140.5 -47.5t-158 -18.5q-113 0 -215 34t-179 102.5t-123 171t-46 239.5z" />
<glyph unicode="d" horiz-adv-x="1298" d="M20 522q0 119 39 216.5t104.5 165t151.5 104t181 36.5q109 0 169 -29.5t89 -47.5v303h-95v266h510v-1270h99v-266h-480l-34 76q-10 -10 -32 -25.5t-54.5 -31t-75.5 -26.5t-96 -11q-109 0 -197 44t-149.5 118.5t-95.5 173t-34 204.5zM461 522q0 -47 10 -92t29.5 -80 t46 -57.5t61.5 -22.5q31 0 58.5 18.5t47.5 52.5q22 34 32 82q9 40 8 90v19q0 51 -12.5 96.5t-33 79t-47 52t-55.5 18.5q-66 0 -105.5 -69.5t-39.5 -186.5z" />
<glyph unicode="e" horiz-adv-x="1110" d="M10 518q0 125 43 224.5t117 169t174 105.5t217 36q92 0 171 -22.5t142.5 -61.5t108.5 -94.5t68 -118.5q8 -27 16 -68t11 -88q1 -18 1 -36q0 -30 -3 -61q-5 -50 -21 -93h-645q4 -20 13 -49t31.5 -55.5t61.5 -45t105 -18.5q27 0 58.5 2t68 12t77.5 29.5t82 54.5l172 -199 q-115 -98 -241.5 -138t-286.5 -40q-96 0 -192.5 32t-173 98.5t-126 172t-49.5 252.5zM416 612h309q0 29 -6 58.5t-21.5 53.5t-45.5 38t-79 14q-47 0 -76.5 -18.5t-47 -44t-24.5 -54t-9 -47.5z" />
<glyph unicode="f" d="M51 758v266h84v174q0 43 11.5 107.5t53.5 124t121.5 101.5t219.5 42q39 0 84 -4t86 -11.5t75.5 -16.5t55.5 -19l-123 -236q-16 8 -44 14.5t-69 6.5q-66 0 -65 -109v-174h186v-266h-186v-490h123v-268h-611v268h82v490h-84z" />
<glyph unicode="g" horiz-adv-x="1310" d="M20 518q0 119 33 216t97.5 166t161 106.5t223.5 37.5q68 0 127 -26.5t90 -56.5l41 63h487v-268h-123v-613q0 -127 -39 -230t-118.5 -177t-199.5 -115t-282 -41q-84 0 -156.5 18.5t-133 45t-105.5 58.5t-74 58l109 228q18 -16 54 -38t83 -43.5t103.5 -35.5t115.5 -14 q70 0 115 18.5t72.5 46t39 61t11.5 66.5v70q-10 -14 -31 -33.5t-50.5 -37t-69.5 -30t-89 -12.5q-133 0 -226 44t-151.5 116t-86.5 164t-28 188zM457 522q0 -47 10 -92t29.5 -80t46 -57.5t61.5 -22.5q31 0 58.5 18.5t48 52.5t31.5 82q8 40 8 90v19q0 51 -12.5 96.5t-33 79 t-47 52t-55.5 18.5q-66 0 -105.5 -69.5t-39.5 -186.5z" />
<glyph unicode="h" horiz-adv-x="1353" d="M51 0v268h86v1002h-86v266h496v-639q8 14 38.5 41t75 54.5t98.5 48t109 20.5q119 0 189.5 -40t108.5 -104.5t49.5 -145.5t11.5 -161v-342h96v-268h-526v557q0 27 -2 59.5t-13.5 61.5t-36 49.5t-69.5 20.5q-39 0 -64.5 -17.5t-40 -45.5t-19.5 -61.5t-5 -66.5v-289h147 v-268h-643z" />
<glyph unicode="i" horiz-adv-x="675" d="M51 0v268h86v490h-86v266h475v-756h99v-268h-574zM109 1323q0 35 14 72t42 67.5t69.5 50t95.5 19.5q53 0 95 -19.5t70.5 -50t44 -67.5t15.5 -72q0 -86 -57.5 -146.5t-167.5 -60.5q-49 0 -89 18.5t-70 48t-46 66.5t-16 74z" />
<glyph unicode="j" horiz-adv-x="737" d="M29 -154q88 0 136 33t69.5 79t24.5 97t3 88v615h-86v266h475v-881q0 -96 -20.5 -196.5t-86 -184.5t-188.5 -137t-327 -53v274zM233 1323q0 35 14.5 72t42 67.5t69.5 50t96 19.5q53 0 95 -19.5t70.5 -50t44 -67.5t15.5 -72q0 -86 -57.5 -146.5t-167.5 -60.5 q-49 0 -89 18.5t-70 48t-46.5 66.5t-16.5 74z" />
<glyph unicode="k" horiz-adv-x="1339" d="M78 0v266h84v1002h-84v268h473v-926l237 142h-147v270h573v-270h-157l-139 -88l276 -396h102v-268h-606v268h86l-155 221l-72 -49v-172h76v-268h-547z" />
<glyph unicode="l" horiz-adv-x="679" d="M51 0v268h88v1004h-86v264h475v-1268h121v-268h-598z" />
<glyph unicode="m" horiz-adv-x="1859" d="M51 0v268h86v484h-86v270h387l45 -121q12 14 36 40t56.5 50.5t73.5 42t90 17.5q78 0 130.5 -16.5t87 -39t55 -48t32.5 -44.5q47 53 121 100.5t181 47.5q125 0 199.5 -42t115.5 -111t54.5 -157t13.5 -182v-283h100v-276h-520v502q0 37 1 81v13q0 37 -4 70q-6 39 -22 64.5 t-53 25.5q-66 0 -87.5 -42t-21.5 -108v-332h123v-274h-530v522q0 125 -12.5 179.5t-73.5 54.5q-49 0 -70.5 -30t-21.5 -93v-365h122v-268h-608z" />
<glyph unicode="n" horiz-adv-x="1325" d="M51 0v268h86v490h-86v266h436l48 -127q53 72 123.5 118t168.5 46q119 0 192 -40t112.5 -104.5t53 -145.5t13.5 -161v-342h96v-268h-516v559q0 27 -1 59.5t-11 61.5t-33.5 49.5t-68.5 20.5q-39 0 -65 -17.5t-40 -45.5t-19 -61.5t-5 -66.5v-291h147v-268h-631z" />
<glyph unicode="o" horiz-adv-x="1175" d="M23 516q0 129 48 228.5t126.5 167t179 102.5t207.5 35q121 -2 224 -38t179 -105.5t120 -169t46 -228.5v-11q0 -119 -42 -215q-44 -100 -120 -168.5t-178 -104.5t-219 -36q-111 0 -214.5 34t-183.5 101q-80 68 -128 170q-46 97 -45 222v16zM442 514q0 -127 43 -202.5 t109 -75.5q33 0 58.5 20t44 57t27.5 87.5t9 107.5q0 117 -39 194.5t-110 79.5q-31 0 -56.5 -20.5t-44 -57t-30 -86t-11.5 -104.5z" />
<glyph unicode="p" horiz-adv-x="1306" d="M51 -150h86v902h-86v272h469l35 -72q14 10 37.5 25.5t54.5 29t70 23.5t86 10q119 0 210 -43t151.5 -116.5t91 -171t30.5 -205.5q0 -123 -36 -220.5t-98 -165t-148 -104.5t-185 -37q-63 0 -111.5 10.5t-80 25t-50 27.5t-24.5 17v-207h111v-268h-613v268zM553 489 q0 -53 12.5 -97t32.5 -77.5t47 -52t55 -18.5q66 0 106 69.5t40 186.5q0 45 -10.5 91t-30 81t-47 57.5t-60.5 22.5q-31 0 -58.5 -18.5t-48 -52.5t-31.5 -82q-8 -35 -8 -78q0 -15 1 -32z" />
<glyph unicode="q" horiz-adv-x="1351" d="M51 518q0 133 38 231.5t104.5 164t155.5 98t192 32.5q100 0 163.5 -30.5t79.5 -50.5l39 61h477v-266h-100v-955h100v-274h-649v268h133v271q-35 -29 -102.5 -57.5t-159.5 -28.5q-98 0 -184 37.5t-149.5 107.5t-100.5 169t-37 222zM492 516q0 -53 12 -97t32.5 -78 t47 -52.5t55.5 -18.5q66 0 105.5 69.5t39.5 186.5q0 45 -10 91.5t-29.5 81t-47 57t-60.5 22.5q-31 0 -58.5 -18.5t-48 -52t-32.5 -81.5q-8 -33 -8 -74q0 -17 2 -36z" />
<glyph unicode="r" horiz-adv-x="847" d="M51 0v268h90v490h-88v266h385l62 -131q20 37 42.5 69.5t57.5 58.5t86 40t131 14v-368q-139 0 -214 -46.5t-75 -181.5v-211h103v-268h-580z" />
<glyph unicode="s" horiz-adv-x="1040" d="M31 0v369h274q0 -41 25.5 -68t60.5 -42t72 -21.5t59 -6.5q31 0 60.5 13.5t29.5 56.5q0 23 -26.5 38t-68.5 27.5t-96 26t-110 31.5q-53 18 -101 45t-87 65.5t-61.5 92t-22.5 125.5q0 78 36 134t90 92t116.5 53.5t117.5 17.5q104 0 188.5 -47.5t117.5 -112.5l16 135h252 v-369h-266q0 33 -18.5 60.5t-48.5 49t-66.5 34t-75.5 12.5q-33 0 -56.5 -17.5t-23.5 -56.5q0 -23 20.5 -38t56 -29.5t81 -28.5t94.5 -31q57 -20 116.5 -43.5t106.5 -59.5t76.5 -90.5t29.5 -133.5q0 -72 -31.5 -129.5t-84 -97.5t-122 -60.5t-143.5 -20.5q-111 0 -193.5 45.5 t-119.5 104.5l-18 -125h-256z" />
<glyph unicode="t" horiz-adv-x="743" d="M31 758v266h110v188l377 121v-309h195v-266h-195v-365q0 -27 -1 -55.5t4 -53t18.5 -40t44.5 -15.5q20 0 60 11.5t69 23.5v-262q-23 -10 -57.5 -17.5t-71.5 -11.5t-69 -7t-50 -3q-115 0 -179.5 31t-95 86t-39 135t-10.5 178v365h-110z" />
<glyph unicode="u" horiz-adv-x="1292" d="M31 754v270h495v-494q0 -133 23.5 -195.5t87.5 -62.5q53 0 91 43t38 113v326h-135v270h530v-752h101v-272h-388l-55 129q-16 -18 -39.5 -46t-57.5 -52.5t-81 -42t-113 -17.5q-117 0 -195.5 31t-126.5 92.5t-68.5 155.5t-20.5 221v283h-86z" />
<glyph unicode="v" horiz-adv-x="1255" d="M0 764v260h623v-260h-103l94 -217q20 -59 35 -120.5t19 -94.5h8q0 16 5 41.5t13 56.5t19.5 63.5t23.5 63.5l99 207h-109v260h528v-260h-106l-354 -764h-318l-381 764h-96z" />
<glyph unicode="w" horiz-adv-x="1785" d="M0 758v266h551v-266h-70l45 -150q10 -37 19.5 -79t15.5 -82.5t10 -75.5t7 -58h4q2 31 7 82t14 114.5t24.5 136.5t38.5 149l65 229h379l78 -266q18 -59 33.5 -126t25.5 -128.5t17.5 -112.5t11.5 -78h4q2 25 7 63t11.5 83t15.5 91t21 87l35 121h-84v266h500v-266h-84 l-240 -758h-432l-141 463l-148 -463h-422l-231 758h-88z" />
<glyph unicode="x" horiz-adv-x="1329" d="M41 0v254h137l209 235l-254 279h-92v256h664v-256h-97l144 -156l153 156h-137v256h522v-256h-135l-217 -219l258 -295h96v-254h-653v254h96l-155 166l-148 -166h133v-254h-524z" />
<glyph unicode="y" horiz-adv-x="1187" d="M-18 762v262h630v-260h-96l133 -320l133 320h-94v260h520v-254h-98l-389 -946q-23 -47 -52.5 -98.5t-78.5 -94.5t-124 -69.5t-185 -26.5q-80 4 -140.5 33t-107.5 70l153 241q27 -23 56.5 -43t62.5 -26q25 -4 45.5 3t36.5 23.5t28.5 38t20.5 43.5l29 86l-399 758h-84z" />
<glyph unicode="z" horiz-adv-x="1132" d="M51 0v268l494 492h-228v-146h-266v410h1014v-264l-487 -492h215v140h288v-408h-1030z" />
<glyph unicode="&#xad;" d="M96 352v273h594v-273h-594z" />
<glyph unicode="&#x2000;" horiz-adv-x="834" />
<glyph unicode="&#x2001;" horiz-adv-x="1669" />
<glyph unicode="&#x2002;" horiz-adv-x="834" />
<glyph unicode="&#x2003;" horiz-adv-x="1669" />
<glyph unicode="&#x2004;" horiz-adv-x="556" />
<glyph unicode="&#x2005;" horiz-adv-x="417" />
<glyph unicode="&#x2006;" horiz-adv-x="278" />
<glyph unicode="&#x2007;" horiz-adv-x="278" />
<glyph unicode="&#x2008;" horiz-adv-x="208" />
<glyph unicode="&#x2009;" horiz-adv-x="333" />
<glyph unicode="&#x200a;" horiz-adv-x="92" />
<glyph unicode="&#x2010;" d="M96 352v273h594v-273h-594z" />
<glyph unicode="&#x2011;" d="M96 352v273h594v-273h-594z" />
<glyph unicode="&#x2012;" d="M96 352v273h594v-273h-594z" />
<glyph unicode="&#x2013;" horiz-adv-x="915" d="M66 352v273h772v-273h-772z" />
<glyph unicode="&#x2014;" horiz-adv-x="1292" d="M86 352v273h1104v-273h-1104z" />
<glyph unicode="&#x2022;" horiz-adv-x="712" d="M123 659q0 39 15.5 81t44 76t72.5 55.5t99 21.5t99.5 -21.5t75 -55.5t46 -76t15.5 -81q0 -92 -59.5 -156.5t-176.5 -64.5q-51 0 -93 19.5t-72.5 50.5t-48 70.5t-17.5 80.5z" />
<glyph unicode="&#x202f;" horiz-adv-x="333" />
<glyph unicode="&#x205f;" horiz-adv-x="417" />
<glyph unicode="&#x25fc;" horiz-adv-x="1024" d="M0 0v1024h1024v-1024h-1024z" />
</font>
</defs>
</svg>
